Форум Православного сервера kanon.su

Текущее время: 21 фев 2024, 11:25

Часовой пояс: UTC + 3 часа




Начать новую тему Ответить на тему  [ Сообщений: 13 ]  На страницу 1, 2  След.
Автор Сообщение
 Заголовок сообщения: Формат видеофайлов - не могу открыть в редакторе.
СообщениеДобавлено: 09 июл 2010, 22:17 
Не в сети

Зарегистрирован: 05 июн 2010, 15:39
Сообщений: 65
Очков репутации: 0

Добавить очки репутацииУменьшить очки репутации
Доброго здоровья!
Возникла проблема с открытием видеофайлов в редакторе VirtualDUB.
Потребность в редактировании появилась после передач встречи с Осиповым в студии тк "Союз". Дело в том, что начальные и конечные заставки из видеофраз Осипова по две на каждую часть изрядно мешают и портят общее впечатление. Тем более когда есть нужда записать DVD для передачи друзьям и знакомым.

Задался целью подредактировать и вырезать эти заставки. Но не тут-то было. Ни один редактор (VD и WMM) не хотят эти файлы открывать (впрочем как и все остальные, выложенные на сервере Канона).
Появляется ошибка
Изображение

Хотя все кодеки установлены и другие файлы AVI Без проблем открываются.
Как поступить, подскажите пож-ста. Чем отредактировать? Чем и как например переконвертить Ваши файлы с изменением соотношения сторон?
Спасибо!

_________________
...Да пошлет Господь нам всем чистоты сердечной.


Вернуться к началу
 Профиль  
 
 Заголовок сообщения: Re: Формат видеофайлов - не могу открыть в редакторе.
СообщениеДобавлено: 10 июл 2010, 06:50 
Не в сети
Аватара пользователя

Зарегистрирован: 26 май 2010, 13:45
Сообщений: 802
Откуда: Москва
Очков репутации: 4

Добавить очки репутацииУменьшить очки репутации
Странно, файлы записываются и конвертятся также, как и раньше, ничего не менял в настройках.
Вам я так понял нужно отрезать рекламу о распространении ДВД дисков вначале и в конце ? Или я не правильно понял ?

_________________
Вера состоит не в том только, чтобы креститься во Христа, но чтобы и заповеди Его исполнять.

http://kanon.myftp.org


Вернуться к началу
 Профиль  
 
 Заголовок сообщения: Re: Формат видеофайлов - не могу открыть в редакторе.
СообщениеДобавлено: 10 июл 2010, 22:03 
Не в сети

Зарегистрирован: 05 июн 2010, 15:39
Сообщений: 65
Очков репутации: 0

Добавить очки репутацииУменьшить очки репутации
kanon писал(а):
Странно, файлы записываются и конвертятся также, как и раньше, ничего не менял в настройках.
Вам я так понял нужно отрезать рекламу о распространении ДВД дисков вначале и в конце ? Или я не правильно понял ?


Да, совершенно верно. Но и дополнительно хотелось бы переконвертить некоторые файлы с другим соотношением сторон.

Проблема в том, что эти файлы (вообще все AVI выложенные на сервере) не понимает ни один редактор, включая виндовский WMM.
Масса иных авишников, в т.ч. и скачанные с сайта Осипова открываются в редакторах без проблем.
Что-то хитрое с форматом самих файлов. Кодеки установлены из последней мега-версии K_Lite_Codec_Pack_604_Mega. В них специально добавлен пакет кодеков VFW для решения подобных прблем. И однако не помогает... :(

_________________
...Да пошлет Господь нам всем чистоты сердечной.


Вернуться к началу
 Профиль  
 
 Заголовок сообщения: Re: Формат видеофайлов - не могу открыть в редакторе.
СообщениеДобавлено: 11 июл 2010, 07:21 
Не в сети
Аватара пользователя

Зарегистрирован: 26 май 2010, 13:45
Сообщений: 802
Откуда: Москва
Очков репутации: 4

Добавить очки репутацииУменьшить очки репутации
Обрезал рекламу и выложил: http://kanon.kabb.ru/viewtopic.php?f=30&t=116
Будут все 5 частей.

PS...У Вас не конвертятся, т.к. я защиту ставлю на файлы. ;)
Ну, а если серьезно, то даже не знаю, что и сказать по вопросу переконвертации. Я например использую Xilisoft Video Converter Ultimate.
Все конвертится без проблем и обрезается. :)

_________________
Вера состоит не в том только, чтобы креститься во Христа, но чтобы и заповеди Его исполнять.

http://kanon.myftp.org


Вернуться к началу
 Профиль  
 
 Заголовок сообщения: Re: Формат видеофайлов - не могу открыть в редакторе.
СообщениеДобавлено: 11 июл 2010, 23:05 
Не в сети

Зарегистрирован: 05 июн 2010, 15:39
Сообщений: 65
Очков репутации: 0

Добавить очки репутацииУменьшить очки репутации
kanon писал(а):
Обрезал рекламу и выложил: http://kanon.kabb.ru/viewtopic.php?f=30&t=116
Будут все 5 частей.

PS...У Вас не конвертятся, т.к. я защиту ставлю на файлы. ;)


Это шутка? Или серьезно :oops:

Не неконвертятся, а просто не открываются.

_________________
...Да пошлет Господь нам всем чистоты сердечной.


Вернуться к началу
 Профиль  
 
 Заголовок сообщения: Re: Формат видеофайлов - не могу открыть в редакторе.
СообщениеДобавлено: 12 июл 2010, 05:16 
Не в сети
Аватара пользователя

Зарегистрирован: 26 май 2010, 13:45
Сообщений: 802
Откуда: Москва
Очков репутации: 4

Добавить очки репутацииУменьшить очки репутации
Я же ниже написал, что: ну, а если серьезно... (т.е. конечно же не ставлю никаких защит).
Просто не понимаю, почему не конвертятся файлы. :shock:

_________________
Вера состоит не в том только, чтобы креститься во Христа, но чтобы и заповеди Его исполнять.

http://kanon.myftp.org


Вернуться к началу
 Профиль  
 
 Заголовок сообщения: Re: Формат видеофайлов - не могу открыть в редакторе.
СообщениеДобавлено: 12 июл 2010, 20:32 
Не в сети

Зарегистрирован: 05 июн 2010, 15:39
Сообщений: 65
Очков репутации: 0

Добавить очки репутацииУменьшить очки репутации
kanon писал(а):
Я же ниже написал, что: ну, а если серьезно... (т.е. конечно же не ставлю никаких защит).
Просто не понимаю, почему не конвертятся файлы. :shock:


Извините. Это видимо от жары. Мозги плавятся. :)

По поводу конвертации хочу уточнить. До этого дело не доходит. Я просто не могу открыть файл в редакторе.
Пытался 2-мя - VirtualDub и Windows Movie Maker.
Загружаю редактор и пытаюсь открыть в нем искомый файл. Редактор тут же отвечает ошибкой, которая приведена в скриншоте. Мол, нужны драйвера, которых в системе нет. Хотя все они есть. Проверено. Эта ситуация только с AVI файлами Канона. Вся остальная масса авишников - фильмы, лекции с сайта Осипова и пр. о
открываются без проблем.
Мне намекали на других форумах, что сами файлы могут быть закодированы нестандартно. Вроде AVI есть двух типов - тип 1 и тип 2. Так вот с первым типом и возниеают такие сложности.

Ладно, извините, я со своими заморочками отнимаю у Вас массу времени. Попытаюсь найти конвертер, которым Вы работаете и попробую им.

Спасибо! Дай Бог Вам успехов и хорошего настроения!
Храни Господь!

_________________
...Да пошлет Господь нам всем чистоты сердечной.


Вернуться к началу
 Профиль  
 
 Заголовок сообщения: Re: Формат видеофайлов - не могу открыть в редакторе.
СообщениеДобавлено: 13 июл 2010, 05:17 
Не в сети
Аватара пользователя

Зарегистрирован: 26 май 2010, 13:45
Сообщений: 802
Откуда: Москва
Очков репутации: 4

Добавить очки репутацииУменьшить очки репутации
В связи с тем, что Вы пишите, что файлы с сервера проги-конверторы вообще не открывают, попробовал те конверторные проги, что установлены у меня на компе:
HandBrake - открывает файлы для конвертации без проблем.
Total Video Converter - открывает файлы для конвертации без проблем.
XviD4PSP 5.0 - открывает файлы для конвертации без проблем.
Про Xilisoft Video Converter Ultimate я уже писал, т.к. на ней работаю, т.е. тоже без проблем. :)

А вот пропробовал VirtualDub 1.8 - действительно выдает такую же ошибку как и у Вас. :shock:
Хотя очень странно, т.к. параметры конвертации у своих файлов ставлю стандартные, т.е. не навороченные какие-нибудь:

General
Complete name : I:\KANON\Video
Format : AVI
Format/Info : Audio Video Interleave
File size : 246 MiB
Duration : 25mn 38s
Overall bit rate : 1 342 Kbps
Writing application : Lavf51.12.1

Video
Format : xvid
Codec ID : xvid
Duration : 25mn 38s
Bit rate : 1 202 Kbps
Width : 720 pixels
Height : 544 pixels
Display aspect ratio : 4:3
Frame rate : 25.000 fps
Resolution : 24 bits
Bits/(Pixel*Frame) : 0.123
Stream size : 220 MiB (90%)

Audio
ID : 1
Format : MPEG Audio
Format version : Version 1
Format profile : Layer 3
Format settings, Mode : Joint stereo / MS Stereo
Codec ID : 55
Codec ID/Hint : MP3
Duration : 25mn 38s
Bit rate mode : Constant
Bit rate : 128 Kbps
Channel(s) : 2 channels
Sampling rate : 44.1 KHz
Resolution : 16 bits
Stream size : 23.5 MiB (10%)
Alignment : Aligned on interleaves
Interleave, duration : 26 ms (0.65 video frame)

Предполагаю, что видимо VirtualDub не нравится сама программа-кодировщик: Lavf51.12.1

_________________
Вера состоит не в том только, чтобы креститься во Христа, но чтобы и заповеди Его исполнять.

http://kanon.myftp.org


Вернуться к началу
 Профиль  
 
 Заголовок сообщения: Re: Формат видеофайлов - не могу открыть в редакторе.
СообщениеДобавлено: 14 июл 2010, 22:09 
Не в сети

Зарегистрирован: 05 июн 2010, 15:39
Сообщений: 65
Очков репутации: 0

Добавить очки репутацииУменьшить очки репутации
yrm писал(а):
Мне нравится XviD4PSP - очень хороший конвертор и добротно переводит из любых форматов в любые. :)
А резать файлы лучше прогой Ultra Video Splitter. Супер программа.


[quote="kanon"]
Спасибо! Буду искать проги, что Вы рекомендуете и попробую работать с ними.
Всех благ!

_________________
...Да пошлет Господь нам всем чистоты сердечной.


Вернуться к началу
 Профиль  
 
 Заголовок сообщения: Re: Формат видеофайлов - не могу открыть в редакторе.
СообщениеДобавлено: 17 июл 2010, 21:32 
Не в сети

Зарегистрирован: 05 июн 2010, 15:39
Сообщений: 65
Очков репутации: 0

Добавить очки репутацииУменьшить очки репутации
kanon писал(а):
...параметры конвертации у своих файлов ставлю стандартные, т.е. не навороченные какие-нибудь:

General
Complete name : I:\KANON\Video
Format : AVI
Format/Info : Audio Video Interleave
File size : 246 MiB
Duration : 25mn 38s
Overall bit rate : 1 342 Kbps
Writing application : Lavf51.12.1

Video
Format : xvid
Codec ID : xvid
Duration : 25mn 38s
Bit rate : 1 202 Kbps
Width : 720 pixels
Height : 544 pixels
Display aspect ratio : 4:3
Frame rate : 25.000 fps
Resolution : 24 bits
Bits/(Pixel*Frame) : 0.123
Stream size : 220 MiB (90%)


Скачал Xilisoft Video Converter Ultimate 5.1.20
Странно, но не могу найти в настройках все те параметры, что приводите вы. Там все другое. Например нет в списке кодека xvid, фоматы файла фиксированные, нет возможность задать произвольное соотношение сторон и пр.
Что-то мне это не очень по душе...

_________________
...Да пошлет Господь нам всем чистоты сердечной.


Вернуться к началу
 Профиль  
 
Показать сообщения за:  Поле сортировки  
Начать новую тему Ответить на тему  [ Сообщений: 13 ]  На страницу 1, 2  След.

Часовой пояс: UTC + 3 часа



Кто сейчас на конференции

Сейчас этот форум просматривают: нет зарегистрированных пользователей и гости: 1


Вы не можете начинать темы
Вы не можете отвечать на сообщения
Вы не можете редактировать свои сообщения
Вы не можете удалять свои сообщения
Вы не можете добавлять вложения

Найти:
Перейти:  
Powered by phpBB © 2000, 2002, 2005, 2007 phpBB Group
Вы можете создать форум бесплатно PHPBB3 на Getbb.Ru, Также возможно сделать готовый форум PHPBB2 на Mybb2.ru
Русская поддержка phpBB